img image001 image001 image001 image001 image001 image001 image001 image001 image001 image001 image001 image001 image001 image001 image001 image001
Planets Sun Sun Sun
Статистика раздачи
Автор: Nickolas3434 | Размер: 2.12 ГБ | Добавлен: 05 окт 2017
Раздают: 23    Качают: 6
Скачать торрент
Скачать торрент

СообщениеДобавлено: 05 окт 2017 

Она не только болтает, она всех мочит / Elle cause plus, elle flingue


Перевод: Профессиональный (двухголосый)
Субтитры: отсутствуют
Формат: DVDRip-AVC, MKV, H.264, AC3
Страна: Франция, Италия
Режиссер: Мишель Одиар
Жанр: комедия
Продолжительность: 01:23:10
Год выпуска: 1972
В ролях: Анни Жирардо, Бернар Блие, Роже Карель, Жан Карме, Дарри Коул, Мишель Галабрю, Даниель Прево, Морис Биро
Описание: История гангстерши, полная хитросплетений и неожиданных событий.



Видео: [email protected] (16:10), 25.000 fps, AVC MPEG-4 (x264), , ~ 3000 Кбит/сек, 0.320 bit/pixel

Аудио #1: Русский: 48 kHz, AC3 Dolby Digital, 2/0 (L,R) ch, 192 kbps avg [Профессиональный (двухголосый)]
Аудио #2: Французкий: 48 kHz/16 bits, AC3 Dolby Digital, 3/2 (L,C,R,l,r), ~448 kbps avg [Оригинал]






Общее
Уникальный идентификатор : 214914898631603242472209036205294665976 (0xA1AF1A97AE1D6B59869F203DE068C0F8)
Полное имя : E:\Закачка-2\Elle.flingue.1972.DVDRip-AVC.ExKinoRay.mkv
Формат : Matroska
Версия формата : Version 2
Размер файла : 2,12 Гбайт
Продолжительность : 1 ч. 23 м.
Общий поток : 3642 Кбит/сек
Дата кодирования : UTC 2017-10-03 01:48:35
Программа кодирования : mkvmerge v7.8.0 ('River Man') 32bit built on Apr 3 2015 12:11:22
Библиотека кодирования : libebml v1.3.1 + libmatroska v1.4.2

Видео
Идентификатор : 1
Формат : AVC
Формат/Информация : Advanced Video Codec
Профиль формата :
Параметр CABAC формата : Да
Параметр RefFrames формата : 14 кадров
Идентификатор кодека : V_MPEG4/ISO/AVC
Продолжительность : 1 ч. 23 м.
Битрейт : 3000 Кбит/сек
Ширина : 656 пикселей
Высота : 572 пикселя
Соотношение сторон : 16:10
Соотношение сторон в оригинале : 16:10
Режим частоты кадров : Постоянный
Частота кадров : 25,000 кадров/сек
Цветовое пространство : YUV
Субдискретизация насыщенности : 4:2:0
Битовая глубина : 8 бит
Тип развёртки : Прогрессивная
Бит/(Пиксели*Кадры) : 0.320
Размер потока : 1,70 Гбайт (80%)
Библиотека кодирования : x264 core 148 r2638 7599210
Настройки программы : cabac=1 / ref=14 / deblock=1:-2:-2 / analyse=0x3:0x133 / me=umh / subme=10 / psy=1 / psy_rd=1.05:0.15 / mixed_ref=1 / me_range=32 / chroma_me=1 / trellis=2 / 8x8dct=1 / cqm=0 / deadzone=21,11 / fast_pskip=0 / chroma_qp_offset=-3 / threads=4 / lookahead_threads=1 / sliced_threads=0 / nr=0 / decimate=0 / interlaced=0 / bluray_compat=0 / constrained_intra=0 / bframes=16 / b_pyramid=2 / b_adapt=2 / b_bias=0 / direct=3 / weightb=1 / open_gop=0 / weightp=2 / keyint=250 / keyint_min=25 / scenecut=40 / intra_refresh=0 / rc=2pass / mbtree=0 / bitrate=3000 / ratetol=1.0 / qcomp=0.60 / qpmin=0 / qpmax=69 / qpstep=4 / cplxblur=20.0 / qblur=0.5 / ip_ratio=1.40 / pb_ratio=1.30 / aq=1:1.00
Язык : English
Default : Да
Forced : Нет
Цветовой диапазон : Limited
Основные цвета : BT.601 NTSC
Характеристики трансфера : BT.601
Коэффициенты матрицы : BT.601

Аудио #1
Идентификатор : 2
Формат : AC-3
Формат/Информация : Audio Coding 3
Параметр Endianness формата : Big
Идентификатор кодека : A_AC3
Продолжительность : 1 ч. 23 м.
Вид битрейта : Постоянный
Битрейт : 192 Кбит/сек
Каналы : 2 канала
Расположение каналов : Front: L R
Частота : 48,0 КГц
Частота кадров : 31,250 кадров/сек (1536 SPF)
Битовая глубина : 16 бит
Метод сжатия : С потерями
Размер потока : 114 Мбайт (5%)
Язык : Russian
ServiceKind/String : Complete Main
Default : Да
Forced : Нет

Аудио #2
Идентификатор : 3
Формат : AC-3
Формат/Информация : Audio Coding 3
Параметр Endianness формата : Big
Идентификатор кодека : A_AC3
Продолжительность : 1 ч. 23 м.
Вид битрейта : Постоянный
Битрейт : 448 Кбит/сек
Каналы : 5 каналов
Расположение каналов : Front: L C R, Side: L R
Частота : 48,0 КГц
Частота кадров : 31,250 кадров/сек (1536 SPF)
Битовая глубина : 16 бит
Метод сжатия : С потерями
Размер потока : 266 Мбайт (12%)
Язык : French
ServiceKind/String : Complete Main
Default : Нет
Forced : Нет





   Похожие торренты   Торрент   Размер 
В этой теме нет новых непрочитанных сообщений. Она не пьет, не курит, не клеит парней, но она... болтает! / Elle boit pas, elle fume pas, elle drague pas, mais... elle cause! (Мишель Одиар) [1969, комедия, DVDRip-AVC] 2 х VO

6 | 0

1.83 ГБ

В этой теме нет новых непрочитанных сообщений. Она не пьет, не курит, не клеит парней, но она... болтает! / Elle boit pas, elle fume pas, elle drague pas, mais... elle cause! (Мишель Одиар) [1970, комедия, DVDRip] 2хVO

7 | 1

1.37 ГБ

В этой теме нет новых непрочитанных сообщений. Она не пьет, не курит, не клеит парней, но она... болтает! / Elle boit pas, elle fume pas, elle drague pas, mais... elle cause! (1969) DVDRip-AVC | L1

137 | 2

1.46 ГБ

В этой теме нет новых непрочитанных сообщений. Она не пьет, не курит, не клеит парней, но она... болтает! / Elle boit pas... (1969) DVDRip | L1

3 | 2

1.09 ГБ

В этой теме нет новых непрочитанных сообщений. За сигаретами / Elle s'en va (2013) DVDRip

1371 | 859

2.05 ГБ

В этой теме нет новых непрочитанных сообщений. За сигаретами / Elle s'en va (2013) DVDRip

238 | 65

751.53 МБ

В этой теме нет новых непрочитанных сообщений. Две или три вещи, которые я знаю о ней / 2 ou 3 choses que je sais d'elle (1967) DVDRip-AVC от Temperest

95 | 20

1.23 ГБ




Вы не можете начинать темы
Вы не можете отвечать на сообщения
Вы не можете редактировать свои сообщения
Вы не можете удалять свои сообщения
Вы не можете добавлять вложения

Перейти:  
Для Мосгорсуда, Роскомнадзора и рекламодателей: mosgorsud-torrent[собачка]yandex.ru
 Вход
ppkBB3cker v.2 © 2008-2014 @ PPK
[ Time : 0.033s | 16 Queries | GZIP : Off ]

Торрент трекер RS-torrent.com
cron